&title=Urban Crusher [Remix]
&artist=「BORDER BREAK」
&first=0
&des=
&wholebpm=155
&demo_seek=0.5
&demo_len=15.5
&des_4=譜面-100号
&des_5=ニャイン
&lv_1=3
&lv_2=6
&lv_3=9
&lv_4=12+
&lv_5=13
&inote_1=(155.0){1},,
{1}3,,
{1}4,,
{1}3,,
{1}3,,
{1}2,
{1}1,
{1}8,
{1}7,
{1}7,
{1}8,
{1}1,
{1}2,
{1}1/8,,
{1}1/8,,
{1}2/7,,
{1}7/2,,
{1}5,,
{1}5,,
{1}6,,
{1}6,,
{1}5,
{1}5,
{1}4,
{1}4,
{2}3,3,
{2}2,2,
{2}1,1,
{1}8b,
{4}1,1,1,1,{1},
{4}2,2,2,2,{1},
{4}1,1,1,1,{1},
{1}8-5[2:1],,
{4}6,6,6,6,{1},
{4}5,5,5,5,{1},
{4}6,6,6,6,{1},
{2}7,8,
{2}1,2,
{1}3-6[2:1],,
{1}7-2[2:1],,
{1}1,
{1}8,
{1}7,
{4}6h[4:7],,,{1},,
E
&inote_2=(155.0){1},,
{4}2,2,
{2}3h[8:3],{1},
{8}8,,8,,7,,,7h[8:7],{1},
{4}7,7,
{2}6h[8:3],{1},
{8}1,,1,,2,,,2h[4:3],{1},
{4}8,8,,7,
{4},6,,7,
{4}1,1,,2,
{4},3,,2b,
{4}8,8,,7,
{4},6,,7,
{4}1,1,,2,
{4},3,,4,
{1}4-1[2:1],,
{1}8-5[2:1],,
{1}3-6[2:1],,
{1}7-2[2:1],,
{4}1,2,
{2}1h[8:3],{1},
{8}8,,7,,8,,,8,
{16},8,,,,,1,,,1,,,,,,,
{4}2,3,
{2}2h[8:3],{1},
{4}7,6,
{2}7h[8:3],{1},
{1}5-8[2:1],,
{1}4-1[2:1],,
{1}8h[2:1],
{1}7h[2:1],
{1}6h[2:1],
{1}5h[2:1],
{8}1/2,,8,,7,,8,8,{1},
{8}1,,2,,3,,2,2,
{4},,,1b,
{8}8/7,,6,,5,,6,6,{1},
{4}5,5,4,4,
{4}3,3,2,2,
{8}8/7,,1,,2,,1,1,{1},
{8}8,,7,,6,,7,7,
{4},,,8b,
{8}2/1,,3,,4,,3,3,{1},
{4}4,4,5,5,
{4}6,6,7,7,
{1}1-5[2:1],,
{1}8-4[2:1],,
{1}6h[2:1],
{1}2h[2:1],
{1}8h[2:1],
{1}1,
{4}8,7,6,5b,
E
&inote_3=(155.0){1},
{8},,,,2,2,2,,
{8}1,,8,,7,7,,8,
{8},1,,2,,3,3,,
{8}8,,1,,2,2,,1/8,
{8},,,8/1,,,,,
{8}8,,1,,2,2,,1,
{8},8,,7,,6,6,,
{8}1,,8,,7,7,,2,
{8}2,,7,7,,2,2,,
{4}8,7,6h[4:1],,
{4}1,2,3,3/1,
{4}1,2,3h[4:1],,
{4}8,7,6/3,3/6,
{4}2,3,4h[4:1],,
{4}7,6,5,5/3,
{4}3,4,5,,
{16}8,,,1,,,8,,,1,,,7,,2,,
{8}7h[4:1],,8,,1,,2,2h[4:1],
{8},1,,8,,7,,,
{4}3h[4:1],2,1,8,
{8}1,1,,8,8,,8/1,,
{8}2h[4:1],,1,,8,,7,7h[4:1],
{8},8,,1,,2,,,
{4}6h[4:1],7,8,1,
{8}8,8,8,1,1,1,7b,,
{8}1,,2,,3,,4,4,
{8},5,,4,,5,,,
{8}1,,8,,7,,,8h[16:3],
{8},,,1h[16:3],,,,,
{8}8,,7,,6,,5,5,
{8},4,,5,,4,,,
{8}8,,1,,2,,3,3^6[8:3],{1},
{8}1,1,,,,,,8,
{8}8,8,,,,,,7,
{8}7,7,,,,,,8,
{8}8,8,,,,,,1,
{8}1,,,2,2,,,3,
{8}3,,,4,4,,,5,
{8}5,,,6,6,,,7,
{1}2b/7b,
{8}1/7,,8,,7,,6,7/5,
{8},6,,6/4,,5,,,
{8}4/2,,3,,2,,1,2/8,
{8},8,,1/7,,,,,
{8}2/8,,1,,2,,3,5/4,
{8},6,,5/4,,3,,,
{8}7,7,,2,2,,5,5h[4:1],
{8},,4,4h[4:1],,,,,
{8}1,,1,,8,8,,7,
{8},2,,2/7,,2,,7,
{8}3,,3,,6,6,,3/4,
{8},5,,6/5,,,,,
{8}7,,7,,8,8,8,2,
{8},1,1,7,,8,8,,
{8}2,2,,7,7,,4,4h[4:1],
{8},,5,5h[4:1],,,,,
{4}1,1,1/8,1/2,
{4}1,1/2,1/8,1/2,
{4}8,8,8/1,8/7,
{16}1,,,1,,,,,,,8,,,8,,,
{16}8-5[4:1],,,,,,,,,,1,,,1,,,
{16}1-4[4:1],,,,,,,,,,8,,,8,,,
{16}8-5[4:1],,,,,,,,,,1,,,1,,,
{1}1b,
{4}7,3,8/4,5/1,
E
&inote_4=(155.0){1},
{16},,,,,,,,1,,1,,7,8,1,2,
{8}3,,5,,7,7,,6/5,
{16},5/4,,,4/3,,,,,,3,4,5,6,,,
{8}6,,4,,2,2,3,4/3,
{16},,7,,6,,5/6,,,,,,2,1,8,7,
{16}6,,,,8,,8,,1,,,1,,,1/2,,
{16},2/1,,,8/7,,,8/7,,,8/1,,,1/2,,,
{12}3,
{995}4,,,,,,,,,,,,,,,,,,,,,,,,,,,,,,,,,,,,,,,,,,,,,,,,,,,,,,,,,,,,,,,,,,,,,,,,,,,,,,,,,,,
{12}5,6,
{995}5,,,,,,,,,,,,,,,,,,,,,,,,,,,,,,,,,,,,,,,,,,,,,,,,,,,,,,,,,,,,,,,,,,,,,,,,,,,,,,,,,,,
{12}4,3,
{995}4,,,,,,,,,,,,,,,,,,,,,,,,,,,,,,,,,,,,,,,,,,,,,,,,,,,,,,,,,,,,,,,,,,,,,,,,,,,,,,,,,,,
{12}5,6,,,
{16}7,7,,,2,2,,,8,1,8,1,8,,,,
{8}3h[8:5],,6,6,6h[2:1],,3,3h[2:1],
{8},6,6h[8:5],,3,3,3h[4:1],,
{8}5h[4:1],4,4h[8:3],5,5h[2:1],,4,4h[8:3],
{8},5,5h[4:1],4,4,,4/5,,
{8}7,2h[4:1],7h[2:1],,2,2h[2:1],,7,
{8}7h[8:7],,2,2h[8:1],,2,2h[2:1],,
{8}8,8,8h[2:1],1,1,1h[8:1],,,
{16}5,,,3,,,6,,,2,,,7,7,1,
{209}1,,,,,,,,,,,,,
{8}8-3[10000:2503],,,,
{8}7-4[4:1],,,6-3[4:1],
{8},,,7-2[4:1],,,,,
{8}1-6[4:1],,,,2-5[4:1],,,3,
{16}8b,8b,,,6,,1b,1b,,,,,3,,,,
{8}1/8,,7,7/6,6,,5,4/3,
{8},4,5/6,,4,4/3,3,,
{8}1/8,,2,3/2,3,,4,5,
{16}3,4,3,4,,,6,5,6,5,,,3,,,,
{8}6,,5,5/3,4,4/6,,3/4,
{8}4,3/5,,5/6,5,4,4/3,,
{8}3,,4,6/4,5,3/5,,1,
{16},2/1,,,,,8,,,8/7,,,,,,,
{8}2,,1/7,8,1,8/2,,8,
{8}7/1,8,,1,8/2,7,1/8,,
{8}7,2/8,1,8,7/1,8,1,8/2^7[8:3],{1},
{16}6,,,,,,6,5,4,,,,,,3,2,
{16}1,,,,,,8,7,6,,,,,,5,4,
{16}3,,,,,,2,1,8,,,,,,7,6,
{16}5,,,,,,4,3,2,,,,,,1,8,
{16}1,,,,,,8,1,2,,,,,,3,4,
{16}5,,,,,,6,7,8,,,,,,1,2,
{16}3,,,,,,4,5,6,,,,,,7,8,
{1}1-5[4:1],
{8}2h[2:1],,7,5,3h[8:3],8,6,4h[2:1],
{8},1,7,5h[2:1],,2,8,6h[8:3],
{8}3,1,7h[2:1],,4,2,8h[2:1],5,
{8},3,1h[2:1],6,,4,2,,
{8}7h[2:1],,2,4,6h[8:5],,1,3,
{8},5h[2:1],8,,2,4h[8:5],7,,
{8}1,,3h[8:5],6,,,8,2h[8:7],
{8},,5,7h[8:3],,,,,
{16}8,,,,8,,8,1,2,,2,,,,1,,
{16},,,,1,,1,8,7,,7,,,,,,
{16}3,,,,3,,3,4,5,,5,,5,,1b/3b,,
{8},4,4,8b/6b,,,2,,
{16}7,,,,5,5,6,6,5,6,5,,,,2,,
{16},,,,4,4,3,3,4,3,4,,,,,,
{12}7,
{995}6,,,,,,,,,,,,,,,,,,,,,,,,,,,,,,,,,,,,,,,,,,,,,,,,,,,,,,,,,,,,,,,,,,,,,,,,,,,,,,,,,,,
{12}5,2,
{995}3,,,,,,,,,,,,,,,,,,,,,,,,,,,,,,,,,,,,,,,,,,,,,,,,,,,,,,,,,,,,,,,,,,,,,,,,,,,,,,,,,,,
{12}4,8,
{995}7,,,,,,,,,,,,,,,,,,,,,,,,,,,,,,,,,,,,,,,,,,,,,,,,,,,,,,,,,,,,,,,,,,,,,,,,,,,,,,,,,,,
{12}6,1,
{995}2,,,,,,,,,,,,,,,,,,,,,,,,,,,,,,,,,,,,,,,,,,,,,,,,,,,,,,,,,,,,,,,,,,,,,,,,,,,,,,,,,,,
{24}3,,
{8}1-6[8:1],,,8-3[8:1],,,,,
{8}2,1,7,8,2,1,2,3,
{8}7,8,2,1,7,8,7,6,
{8}2,1,7,8,2,1,2,3,
{16}7,,7,2,,2,7,,1,,2,,8,7b,,,
{16}2,,1,,7,,8,,2,,1,,2,3b,,,
{16}7,,8,,2,,1,,7,,8,,7,6b,,,
{16}2,,1,7,,8,3b,,1,,2,8,,7,6b,,
{1}5,
{16}5,,5,,4,,6,5,4,3,5,,4,
E
&inote_5=(155.0){1},
{16},,,,,,,,2,,2,,3,4,5,6,
{16}7,,,,7,,,6,6,,1,,,,2,,
{16},,,,,,,,,,3,,4,4,,,
{16}7,,,,6,,,7,7,,1,,,,2,,
{16},,,,,,2b,,,,7,,6,5,4,3,
{16}2,,,,2,,,3,3,,8,,,,7,,
{16},,,,,,,,,,6,,5,5,,,
{16}2,,,,3,,,2,2,,1,,,,8,,
{16}7,7,,,1,1,,,8,,1,2,3,4,5,6,
{8}7h[4:1],8,1h[4:1],2,3h[4:1],4,5h[4:1],6,
{8}7-2[8:1],8,,3,4-1[8:1],5-8[8:1],,,
{8}2h[4:1],3,4h[4:1],5,6h[4:1],7,8h[4:1],1,
{8}2-5[8:1],3,,6,7,8,1/8,,
{8}7h[4:1],8,1h[4:1],2,3h[4:1],4,5h[4:1],6,
{8}7-2[8:1],8,,3,4-1[8:1],5-8[8:1],,,
{8}2h[4:1],3,4h[4:1],5,6h[4:1],7,8h[4:1],1,
{16}2,,3,4,3,,8,,7,6,7,,6,5,4,3,
{8}2h[2:1],,6,5h[2:1],,4,2,1h[4:1],
{8},8,8^3[8:1],,4^7[8:1],,,,
{8}7h[2:1],,3,4h[8:3],,5,7,8,
{16}1,1,,,8,,7,7,,,,,,,,,
{8}2h[2:1],,6,5h[2:1],,4,2,1h[4:1],
{8},8,8^3[8:1],,4^7[8:1],,,,
{8}7h[2:1],,3,4h[8:3],,5,7,8,
{16}1,2,1,2,8,,8,7,8,7,1,,2,2,,,
{16}8,,6,,4,,3,4,,,5,,7,,1,,
{16},,8,,7,,6,7,,,8,,,,8,,
{16}1,,3,,5,,6,5,,,4,,2,,1,2,
{16},1b,,,1,,8,7,,8b,,,,,,,
{16}8,,6,,4,,3,4,,,5,,7,,1,,
{16},,8,,7,,6,7,,,8,,,,8,,
{16}1,,3,,5,,6,5,,,4,,2,,1,2,{1},
{8}1,1,2,2,3,3,4,4,
{8}5,5,6,6,7,7,8,8,
{8}1,1,8,8,7,7,6,6,
{8}5,5,4,4,3,3,2,2,
{8}2/1,8/7,5/6,,7/8,,1/8,,
{8}2/3,5/4,6/7,,7/8,,7/6,,
{16}1/5,,2/6,,7/3,,4/8,,3/7,,2/6,,5,4,3,2,
{16}1,1,2,2,3,3,4,4,5,5,6,6,7,7,8,8,
{16}1h[8:3],,,,
{163}3,,,,,,,,,,,,,,,,,,,,
{761}7h[1087:546],,,,,,,,,,,,,,,,,,,,,,,,,,,,,,,,,,,,,,,,,,,,,,,,,,,,,,,,,,,,,,,,,,,,,,,,,,,,,,,,,,,,,,,,,,,,,,,,,,,,,,,,,,,,,,,,,,,,,,,,,,,,,,,,,,,,,,,,,,,,,,,,,,,,,,,,,,,,,,,,,,,,,,,,,,,,,,,,,,,,,,,,,,,,,,,,
{8}6,4,2h[2:1],
{8},8,6,5h[8:5],,4,3,2,
{8}1h[8:3],,2,4h[2:1],,5,7,8-4[8:1],
{8},2-6[8:1],,7-3[8:1],,,,,
{8}1h[8:3],,
{163}3,,,,,,,,,,,,,,,,,,,,
{761}7h[1087:546],,,,,,,,,,,,,,,,,,,,,,,,,,,,,,,,,,,,,,,,,,,,,,,,,,,,,,,,,,,,,,,,,,,,,,,,,,,,,,,,,,,,,,,,,,,,,,,,,,,,,,,,,,,,,,,,,,,,,,,,,,,,,,,,,,,,,,,,,,,,,,,,,,,,,,,,,,,,,,,,,,,,,,,,,,,,,,,,,,,,,,,,,,,,,,,,
{8}6,4,2h[2:1],
{8},8,6,5h[2:1],,4,3,2,
{8}1/3,,6/8,1/7,,7,6/8,1b/7b,
{8},,3/1,8b/2b,,,,,
{8}1h[8:3],,
{163}3,,,,,,,,,,,,,,,,,,,,
{761}7h[1087:546],,,,,,,,,,,,,,,,,,,,,,,,,,,,,,,,,,,,,,,,,,,,,,,,,,,,,,,,,,,,,,,,,,,,,,,,,,,,,,,,,,,,,,,,,,,,,,,,,,,,,,,,,,,,,,,,,,,,,,,,,,,,,,,,,,,,,,,,,,,,,,,,,,,,,,,,,,,,,,,,,,,,,,,,,,,,,,,,,,,,,,,,,,,,,,,,
{8}6,4,2h[2:1],
{8},8,6,5h[8:5],,4,3,2,
{8}1h[8:3],,2,4h[2:1],,5,7,8-4[8:1],
{8},2-6[8:1],,7-3[8:1],,,,,
{8}1h[8:3],,
{163}3,,,,,,,,,,,,,,,,,,,,
{761}7h[1087:546],,,,,,,,,,,,,,,,,,,,,,,,,,,,,,,,,,,,,,,,,,,,,,,,,,,,,,,,,,,,,,,,,,,,,,,,,,,,,,,,,,,,,,,,,,,,,,,,,,,,,,,,,,,,,,,,,,,,,,,,,,,,,,,,,,,,,,,,,,,,,,,,,,,,,,,,,,,,,,,,,,,,,,,,,,,,,,,,,,,,,,,,,,,,,,,,
{8}6,4,2h[2:1],
{8},8,6,5h[2:1],,4,3,2,
{16}1,,,1,2,,3,,,3,4,,5,,,
{817}5,,,,,,,,,,,,,,,,,,,,,,,,,,,,,,,,,,,,,,,,,,,,,,,,,,
{769}6,
{16},,7,,,7,8,,8,,,,1b,,1b,,
{8}2-5[10000:1277],2,,3,4-7[8:1],4,,5,
{8}6-1[8:1],6,,8,2-5[8:1],2,,3,
{8}4-7[8:1],4,,5,6-1[8:1],6,,8,
{8}2-5[8:1],2,,3,4-7[8:1],4,,,
{16}8,,1,,2,,,6,6,5,5,,3,3,,,
{16}1,,8,,7,,,3,3,4,4,,6,6,,,
{16}8,,1,,2,,,6,6,5,5,,3,3,,,
{1}1,
{16}4,,5,,6,,1,5,3,7,1,,2/7,
E
